#TITLE:comin undone  wit it;
#SUBTITLE:(Clean);
#ARTIST:Unknown artist;
#TITLETRANSLIT:;
#SUBTITLETRANSLIT:;
#ARTISTTRANSLIT:;
#CREDIT:;
#BANNER:;
#BACKGROUND:cimin undone wit it.bmp;
#LYRICSPATH:;
#CDTITLE:;
#MUSIC:01 Lean Wit It, Rock Wit It_Coming Undone (Clean).mp3;
#OFFSET:0.000;
#SAMPLESTART:100.000;
#SAMPLELENGTH:12.000;
#SELECTABLE:YES;
#BPMS:0.000=120.000,392.000=60.000;
#STOPS:;
#BGCHANGES:;
// cache tags:
#FIRSTBEAT:0.000;
#LASTBEAT:790.000;
#SONGFILENAME:Songs/nhac/01 Lean Wit It, Rock Wit It_Coming Undone (Clean)/01 Lean Wit It, Rock Wit It_Coming Undone (Clean).sm;
#HASMUSIC:1;
#HASBANNER:0;
#MUSICLENGTH:211.806;
// end cache tags

//---------------dance-single - A very hard 15-bar-e----------------
#NOTES:
     dance-single:
     A very hard 15-bar-e:
     Edit:
     15:
     0.981,1.000,1.000,1.000,0.326,489.000,329.000,527.000,0.000,159.000:
0110
0011
0000
0000
0000
0000
1100
0000
0000
0000
0000
0000
,
0000
0000
0000
0000
0000
0000
0000
0000
0000
0000
0000
0000
0000
0000
0000
0000
0110
0000
0000
0000
0000
0000
0000
0000
0000
0000
0000
0000
0000
0000
0000
0000
0000
0000
0000
0000
0000
0000
0000
0000
0000
0000
0000
0000
0000
0000
0000
0000
0000
0000
0000
0000
0000
0000
0000
0000
0000
0000
0000
0000
0000
0000
0000
0000
0000
0000
0110
0000
0000
0000
0000
0000
0011
0000
0000
0000
0000
0000
0000
0000
0000
0000
0000
0000
0000
0000
0000
0000
0000
0000
0000
0000
0000
0000
0000
0000
0000
0000
0000
0000
0000
0000
0000
0000
0000
0000
0000
0000
0000
0000
0000
0000
0000
0000
0000
0000
0000
0000
0000
0000
0000
0000
0000
0000
0000
0000
0000
0000
0000
0000
0000
0000
0000
0000
0000
0000
0000
0000
0000
0000
0000
0000
0000
0000
0000
0000
0000
0000
0000
0000
0000
0000
0000
0000
0000
0000
0000
0000
0000
0000
0000
0000
0110
0000
0000
0000
0000
0000
0000
0000
0000
0000
0000
0000
0000
0000
0000
0000
0000
0000
0000
0000
0000
0000
0000
0000
0110
0000
0000
0000
0000
0000
,
0110
0000
0000
0000
0000
0000
0110
0000
0000
0000
0000
0000
0000
0000
0000
0000
0000
0000
0000
0000
0000
0000
0000
0000
0000
0000
0000
0000
0000
0000
0000
0000
0000
0000
0000
0000
0000
0000
0000
0000
0000
0000
0000
0000
0000
0000
0000
0000
0000
0000
0000
0000
0000
0000
0000
0000
0000
0000
0000
0000
0000
0000
0000
0000
0110
0000
0000
0000
0000
0000
0000
0000
0000
0000
0000
0000
0000
0000
0000
0000
0000
0000
0000
0000
0000
0000
0000
0000
0000
0000
0000
0000
0000
0000
0000
0000
0110
0000
0000
0000
0000
0000
0000
0000
0000
0000
0000
0000
0000
0000
0000
0000
0000
0000
0000
0000
0000
0000
0000
0000
0000
0000
0000
0000
0000
0000
0000
0000
0011
0000
0000
0000
0000
0000
0000
0000
0000
0000
0000
0000
0000
0000
0000
0000
0000
0000
0000
0000
0000
0000
0000
0000
0000
0000
0000
0000
0000
0000
0000
0000
0000
0000
0000
0000
0000
0000
0000
0000
0000
0000
0000
0000
0000
0000
0000
0000
0000
0000
0000
0000
0000
0000
0000
0000
0000
0000
0000
0000
0000
0000
0000
0000
,
0011
0000
0011
0000
,
0000
0000
2000
0000
,
0000
0000
0000
0000
,
0000
0000
3000
0000
,
1001
0000
2001
0000
,
0001
0000
0001
0000
,
0001
0000
0001
0000
,
0001
0000
0001
0000
,
3001
0000
0000
0000
1000
0000
0000
0000
0000
0000
0000
0000
1001
1111
0000
0000
0000
0000
0000
1111
0000
0000
0000
0000
,
1100
0000
0011
1100
,
0011
0000
0000
0000
0110
0000
0110
0000
0010
0010
0000
0000
,
0010
0000
0000
0000
0000
0000
0000
0000
0010
0000
0010
0000
0010
0010
0000
0000
0000
0000
0000
0000
0000
0000
0000
0000
0000
0000
0000
0000
0000
0000
0000
0000
,
0110
0000
1100
0000
,
0111
0000
0000
1100
0000
0000
0110
0000
0110
0000
1100
0000
,
1100
0000
0000
0000
1100
0000
0000
0000
1100
0000
0000
0000
0011
0000
0000
0110
0000
0000
0110
0000
0000
0000
0000
0000
0001
0000
0000
0000
0000
0000
0000
0000
0000
0000
0000
0000
0000
0000
0000
0000
0000
0000
0000
0000
0000
0000
0000
0000
,
0001
0000
0000
0001
0001
0000
0000
0000
0000
0011
0000
0000
,
0011
0000
0011
0000
,
0011
0000
0011
0000
,
0011
0000
1100
0110
,
0011
0000
0110
0000
0110
0000
0110
0000
0110
0000
1111
0000
,
1111
0000
0000
0000
1111
0000
0000
0000
0111
0000
0000
0000
0100
0000
0100
0110
0100
0000
0100
0000
0000
0010
0000
0000
,
0010
0000
0000
0000
,
0000
0000
0000
0000
,
0000
0000
0000
0000
0200
0300
0000
0000
,
0000
0000
0000
0000
,
0000
0000
0000
0000
,
0200
0000
2022
0000
,
0000
0000
0000
0000
3333
0000
0011
0010
,
0011
0000
0000
0000
0000
0000
0100
0000
0000
0020
0000
0000
0130
0000
0000
0000
0010
0000
0020
0000
0000
0000
0200
0000
,
0030
0300
0200
0000
0000
0020
0030
0000
0000
0000
0020
0300
,
0230
0000
0320
0030
0200
0000
0320
0030
0200
0300
0020
0030
,
0010
0200
0020
0330
0110
0220
0330
0200
0000
0020
0330
0020
,
0030
0210
0020
0330
0200
0300
0220
0300
0000
0030
0210
0300
,
0220
0330
0110
0220
0330
0110
0220
0330
0110
0220
0330
0110
,
0220
0330
0110
0220
0330
0120
0030
0110
0020
0030
0010
0022
,
0033
0011
0022
0033
0022
0033
0011
0022
0033
0011
0022
0033
,
0022
0033
0022
0033
0111
0020
0130
0000
0000
0000
0220
0330
,
0220
0330
0110
0220
0330
0220
0000
0330
0220
0330
0000
0000
,
0220
0330
2200
3300
1100
2200
3300
2200
3300
1200
0300
1100
,
2200
3300
0100
0222
0333
0022
0033
0002
0003
0000
2110
0220
,
3330
2020
3032
0003
2002
3003
2000
3022
0033
0022
0033
2022
,
3033
2020
0000
0000
3032
0010
2203
3300
0002
0003
0002
0003
,
0001
0222
0333
1022
2200
0000
0000
0000
0000
0000
0000
0000
,
0000
0000
0000
0000
0000
0000
0000
0000
0000
0000
0000
3333
,
0000
0000
0000
1110
,
0010
0000
0020
2200
0030
0000
3300
0000
0220
0000
0330
0000
,
0220
0000
0330
0000
2000
0000
3010
0000
0000
0010
0000
0000
,
0220
0330
0220
0330
,
2200
0300
3000
0100
,
0220
0330
0000
0000
,
0000
0000
0000
0000
,
0000
0000
0000
0000
,
0000
0000
0000
0000
,
0000
0000
0200
0300
,
0000
0020
2030
0200
,
3300
0020
1130
0210
,
0300
0000
0011
0001
0000
0000
2221
0000
0000
0330
0000
0000
,
3120
2030
0002
3100
,
0220
0330
0220
2030
,
3323
0030
0220
0330
,
2000
3020
0032
0200
,
0323
1130
2221
3330
,
1002
0220
1330
0020
,
0033
0200
2320
3030
,
0220
0000
0330
0000
0010
0000
1100
1100
,
0022
0000
0000
2000
3000
1200
1300
1100
1133
0000
0000
2000
3000
0000
0000
0000
,
0011
0000
0000
2200
0000
0000
3300
0000
0000
0000
0000
0000
2200
0000
3300
0000
0000
0000
0000
0000
0000
0000
0000
0000
0100
0000
0000
0000
0000
0000
0000
0000
0000
0000
0000
0000
0000
0000
0000
2200
0000
0000
3300
0000
0000
0000
0000
0000
,
0000
0000
2200
0000
3300
0000
1100
0000
1000
0000
1200
0000
1300
0000
0000
0000
2202
0003
0000
0000
0000
0000
0011
0000
0000
0000
0011
0011
0011
0011
0011
0011
,
3310
0011
0011
0022
0033
0011
0011
0011
0011
0011
0011
0001
0011
0011
0011
0011
0011
0011
0011
0011
0010
0000
0000
0022
0033
0011
0011
0011
0011
0011
0011
0002
,
0013
0000
0000
0000
0000
0000
0012
0000
0000
0000
0000
0000
0013
0000
0000
0000
0000
0000
0011
0000
0000
0000
0000
0000
0222
0000
0000
0000
0000
0000
0000
0000
0003
0000
0000
0000
2332
0000
0000
0000
0000
0000
0000
0000
0000
0000
0000
0000
3003
0000
0000
0000
0000
0000
0000
0000
0000
0000
0000
0000
2021
0000
0000
0000
0000
0000
0000
0000
0000
0000
0000
0000
3030
0000
0000
0000
0000
0000
0000
0000
0000
0000
0000
0000
0000
0000
0000
0000
0000
0000
0000
0000
0000
0000
0000
0000
0222
0000
0000
0000
0000
0000
0000
0000
0000
0000
0000
0000
0000
0000
0000
0000
0000
0000
0000
0000
0000
0000
0000
0000
0000
0000
0000
0000
0000
0000
0000
0000
0000
0000
0000
0000
0000
0000
0000
0000
0000
0000
0000
0000
0000
0000
0000
0000
0000
0000
0000
0000
0000
0000
0000
0000
0000
0000
0000
0000
0000
0000
0000
0000
0000
0000
0000
0000
0000
0000
0000
0000
0000
0000
0000
0000
0000
0000
0000
0000
0000
0000
0000
0000
0000
0000
0000
0000
0000
0000
0000
0000
0000
0000
0000
0000
,
0333
0000
2202
0000
,
3303
0000
0100
0000
,
2222
0000
3333
0000
,
0222
0000
2333
0000
,
0000
0000
3220
0000
,
0030
0000
0322
0000
,
2033
0000
0221
0000
,
3330
0000
0202
0000
,
0003
0000
0300
0000
,
0000
0000
2200
0000
,
3300
0000
0000
0000
,
0222
0000
0333
0000
,
0210
0000
0310
0000
,
0022
0000
0033
0000
,
0000
0000
0000
0000
,
0101
0000
0022
0000
,
0133
0000
0020
0000
,
2030
0000
0222
0000
,
3333
0000
0122
0000
,
0033
0000
0111
0000
,
0222
0000
0333
0000
,
0122
0000
0033
0000
,
0111
0000
0022
0000
,
0033
0000
0022
0000
,
0033
0000
0022
0000
,
0033
0001
0220
0001
,
0330
0222
0333
0222
,
0333
0220
0330
0022
,
0033
0221
0330
0122
,
0033
0011
0002
0013
,
0022
0033
0222
0333
,
0022
0033
0011
0022
,
0033
0022
0200
0333
,
0222
0333
0222
0333
,
0222
0333
0022
0033
,
0222
0333
0222
0333
,
0222
0333
0222
0333
,
0222
0333
0222
0333
,
0022
0033
0022
0033
,
0220
0030
0300
0200
,
2000
0000
0300
0000
,
0010
0200
0010
0302
,
3003
2201
0020
3300
,
2200
0002
0333
0002
,
3003
2002
0003
0020
,
0230
0000
3312
2003
,
0222
3333
2220
0330
,
3022
0033
0221
0330
,
1000
0022
1003
2200
,
0330
0022
3033
0002
,
0023
0131
2002
3013
,
2002
0003
0002
3003
,
2022
3033
0022
0033
,
0222
0333
2222
3333
,
0002
0003
0222
0333
,
0111
0002
0013
0022
,
0033
0022
0033
0022
,
0033
0000
2222
3333
,
2222
0000
0000
0000
,
0000
0000
0000
0000
,
0000
0000
0303
3032
,
0000
0003
2220
3000
,
0330
0122
0033
2000
,
3000
0002
2203
3320
,
0030
0222
0033
0020
,
0330
0002
0223
0300
,
0002
0033
0220
0330
,
0002
0003
0000
2200
,
0310
3012
0003
2222
,
0333
0222
0333
3120
,
0032
0113
0222
0333
,
0122
0033
0021
2030
,
0000
0002
3003
0022
,
0033
2022
3033
0022
,
0033
2021
0030
3011
,
0002
0013
2022
3033
,
1011
0000
0011
0022
,
0033
0000
0111
0000
,
0000
0000
2222
0000
,
0000
0000
3333
0000
,
0000
0000
0000
2222
,
3330
0003
0000
0000
,
0222
0333
0000
0002
,
0003
0000
0011
0000
,
0022
0033
0000
0122
,
0033
0000
0111
0000
,
0222
0333
0000
0012
,
0003
0000
0111
0000
,
0022
0033
0000
2222
,
3333
2002
3003
0000
,
2222
3333
0002
1113
,
0000
0222
0333
0000
,
0022
0033
0000
0111
,
0022
2200
0000
0000
,
0000
0000
0000
0000
,
0000
0000
0000
0000
,
0000
0000
0000
0000
,
0000
0300
0000
0000
,
0000
0000
0000
0000
,
0000
0000
0000
0200
,
0000
0000
0000
0000
,
0000
0000
0000
0000
,
0000
3000
0000
0000
,
0000
0000
0000
0000
,
2000
0000
0000
0000
,
0000
0000
0003
0000
,
0000
0000
0000
0000
,
0002
0000
0000
0000
,
0000
0000
0000
0000
,
0000
0000
0003
0030
,
0000
0000
0000
0000
,
0000
0020
0000
0000
,
0000
0000
0000
0000
,
0000
0000
0000
0332
,
3003
0022
0033
0022
,
0033
0111
2222
3333
,
1112
0003
0111
0000
,
0111
0000
0111
0000
,
0122
0033
0222
0333
,
0022
0033
0220
0330
,
0000
0022
0033
0022
,
0033
1020
0032
0013
,
0022
0033
0222
0333
,
0002
0003
0011
0022
,
0033
2222
3333
0000
;

//---------------dance-single - ----------------
#NOTES:
     dance-single:
     :
     Hard:
     1:
     0.000,0.000,0.000,0.000,0.000,0.000,0.000,0.000,0.000,0.000:
0000
0000
0000
0000
;

//---------------pump-single - ----------------
#NOTES:
     pump-single:
     :
     Edit:
     1:
     0.000,0.000,0.000,0.000,0.000,0.000,0.000,0.000,0.000,0.000:
00000
00000
00000
00000
;

//---------------pump-single - ----------------
#NOTES:
     pump-single:
     :
     Easy:
     1:
     0.576,1.000,0.708,1.000,0.477,358.000,150.000,294.000,0.000,114.000:
11000
00000
00000
00000
00000
11000
00000
00000
00011
01100
00000
00000
00000
00000
00000
00101
00110
00000
00200
00000
00000
00320
00030
00000
00210
00000
00000
00300
00002
00003
00000
00000
,
00000
00000
02100
03000
00020
02030
03000
00220
00330
02200
03300
02000
00000
03020
00030
00210
00300
00020
00000
00000
00000
00000
00000
00000
00000
20000
02030
00000
00200
00000
00000
00020
,
00000
00000
00000
03300
00200
00000
30000
00000
00030
00000
00300
02000
23020
30030
01110
22220
00000
00000
00000
00000
00000
00000
00000
00000
00000
00000
00000
00000
03000
30330
00010
00000
,
00200
00300
02000
03000
00200
00300
02000
03000
00020
00030
02000
03000
00020
00030
22000
33000
00020
00030
01100
00100
00200
00000
00000
00000
00000
00000
00000
00000
00000
00000
00000
00000
,
00000
00000
00000
00000
00000
00000
00000
00000
00000
00000
00000
00000
00000
00000
00000
00000
00000
00000
00000
00000
00000
00000
00000
00000
00000
02000
00000
00000
00000
00000
00000
00000
,
00000
00000
00000
00000
,
00000
00000
00000
00000
00000
00000
00000
00000
00000
00000
00000
00000
00000
00000
00300
00000
00020
00000
00000
00000
00000
03000
00000
00000
00000
00000
00000
00000
00000
00000
00000
00000
,
00000
00000
00000
00000
00000
00000
00000
00000
00000
00000
00000
00000
00000
00000
00000
00000
00000
00000
00000
00000
00000
00000
00000
00000
00000
00000
00000
00000
00000
00200
00000
00000
,
00000
00300
00000
00000
02200
00300
00030
20000
00000
30220
03330
12000
03000
00000
00220
00330
00000
00100
00000
00200
00300
00000
00200
00300
00000
00100
00000
00110
00100
00000
00200
00300
,
00020
00030
00200
00320
00030
00000
00000
00000
20000
00000
00000
02200
33000
00300
00200
00300
00010
00000
00010
00000
00000
00020
00030
00200
00300
00000
01100
00000
01000
20000
30000
20000
,
30000
02000
03000
02000
03000
00200
00300
00200
00300
00011
00000
00001
00000
00100
00000
11000
00000
00200
00300
00002
00003
00000
00101
00000
00000
00120
00030
00000
00120
00030
00000
00220
,
00330
00000
00000
00110
00000
00000
00110
00000
00000
00000
00000
00000
00000
00220
00330
00000
00000
00000
00000
00000
00000
00000
00220
00330
00000
00000
00000
00000
00000
00000
00000
00000
,
00000
00000
00000
00000
00220
00330
00000
00000
00000
00000
00000
00000
00000
00000
00000
00000
00000
00000
00000
00000
00000
00000
00000
00000
00002
00003
00000
00000
00000
00000
00000
00020
,
00030
00000
00000
00000
00000
00000
00000
00000
00200
00300
00000
20000
30000
00000
00000
00000
00000
00000
00000
00000
00000
00000
00000
02000
03000
02000
03000
00000
00000
00000
00000
00000
,
02000
00000
00000
00000
00000
00000
00000
00000
00000
00000
00000
00000
00000
00200
00000
00000
,
00000
00000
00000
00000
00000
00000
00000
00000
00000
00000
00000
00000
00000
00000
00000
00000
00000
00000
00000
00000
00000
03000
00000
00000
00000
00000
00000
00000
00000
00000
00000
00000
,
00000
00020
00000
00000
00000
00000
00000
00000
00000
00000
00000
00000
00000
00000
00000
00000
,
00000
00000
00000
00030
00000
00000
00000
00000
00002
00000
00000
00000
00000
00000
00000
00000
00000
00000
00000
00000
00000
00000
00000
00000
00000
00000
00000
00000
00000
00000
00000
00000
,
00000
00000
00000
00000
00000
00000
00000
00000
00000
00000
00003
00000
00000
00000
00000
00000
00000
00000
00000
00000
00000
22000
00000
00000
00000
00000
00000
00000
00000
00000
00000
00000
,
00000
00000
00000
00000
00000
00000
00000
00000
00000
00000
03300
00000
00000
00000
00000
00000
00000
00200
00000
00000
00000
00000
00000
00000
00000
00000
00000
00000
00000
00000
00000
00000
,
30000
00000
00000
00000
00000
00000
00000
00000
00000
00000
00000
00000
00000
00000
00000
00000
00000
00000
00000
00000
00000
00000
00000
00000
00000
00000
00000
00000
00000
00000
00000
00000
00000
00000
00000
00000
00300
00000
00000
00000
00000
00000
11000
00000
00000
00000
00000
00000
01110
00000
00000
00000
00000
00000
00000
00000
00220
00000
00000
00000
00000
00000
00000
00000
00330
00000
00000
00000
00000
00000
00000
00000
02000
00000
00000
00000
00000
00000
00000
00000
03000
00000
00000
00000
00000
00000
00000
00000
00020
00000
00000
00000
00000
00000
00000
00000
00030
00000
00000
00000
00000
00000
00000
00000
00000
00000
00000
00000
00000
00000
00000
00000
00100
00000
00000
00000
00000
00000
00000
00000
00000
00000
00000
00000
00000
00000
00000
00000
01010
00000
00000
00000
00000
00000
00000
00000
00000
00000
00000
00000
00000
00000
00000
00000
00000
00000
00000
00000
00000
00000
00000
00000
00000
00000
00000
00000
00000
00000
00000
00000
00110
00000
00000
00000
00000
00000
00000
00000
00000
00000
00000
00000
00000
00000
00000
00000
00000
00000
00000
00000
00000
00000
00000
00000
00000
00000
00000
00000
00000
00000
00000
00000
,
11000
00000
00000
00000
00000
00000
00110
00000
00000
00000
00000
00000
00000
00000
00000
00000
00000
00000
00000
00000
00000
00000
00000
00000
00000
00000
00000
00000
00000
00000
00000
00000
01100
00000
00000
00000
00000
00000
00000
00000
00000
00000
00000
00000
00000
00000
00000
00000
01100
00000
00000
00000
00000
00000
00000
00000
00000
00000
00000
00000
00000
00000
00000
00000
00000
00000
00000
00000
00000
00000
00000
00000
00000
00000
00000
00000
00000
00000
00000
00000
00000
00000
00000
00000
00000
00000
00000
00000
00000
00000
00000
00000
00000
00000
00000
00000
11100
00000
00000
00000
00000
00000
00000
00000
00000
00000
00000
00000
00000
00000
00000
00000
00000
00000
00000
00000
00000
00000
00000
00000
00000
00000
00000
00000
00000
00000
00000
00000
00000
00000
00000
00000
00000
00000
00000
00000
00000
00000
00000
00000
00000
00000
00000
00000
00100
00000
00000
00000
00000
00000
00000
00000
00000
00000
00000
00000
00000
00000
00000
00000
00000
00000
00000
00000
00000
00000
00000
00000
00000
00000
00000
00000
00000
00000
00000
00000
00000
00000
00000
00000
00000
00000
00000
00000
00000
00000
00000
00000
00000
00000
00000
00000
,
00100
01010
00000
00000
,
00000
00000
22220
00000
,
00000
00000
00000
00000
,
00000
00000
00000
00000
,
00000
00000
00000
00000
,
00000
00000
00000
00000
,
00000
00000
00000
00000
,
00000
00000
00000
00000
,
00000
00000
00000
00000
,
00000
00000
00000
00000
,
00000
00000
00000
00000
,
00000
00000
00000
00000
,
00000
00000
00300
00000
,
00000
00000
00000
00000
,
00000
00000
00000
00000
,
00200
00000
00000
00000
,
00000
00000
00300
00000
,
00000
00000
00000
00000
,
03000
00000
00000
00000
,
00000
00000
00200
00000
,
00000
00000
00000
00000
,
00000
00000
00000
00000
,
00000
00000
00000
00000
,
00000
00000
00000
00000
,
00000
00000
00000
00000
,
00000
00000
00000
00000
,
00000
00000
00000
00000
,
00000
00000
00000
00000
,
00000
00000
00000
00000
,
00000
00000
00000
00000
,
00000
00000
00000
00000
,
00000
00000
00000
00000
,
00000
00000
00000
00000
,
00000
00000
00000
00000
,
30302
00000
00000
00000
,
00033
00000
00000
00000
,
00000
00000
00000
00000
,
00000
00000
00000
00000
,
00000
00000
00000
00000
,
00000
00000
02220
00000
,
00000
00000
00000
00000
,
00000
00000
00000
00000
,
00000
00000
00000
00000
,
00000
00000
00000
00000
,
00000
00000
00000
00000
,
03000
00000
00000
00000
,
02000
00000
00000
00000
,
00000
00000
00000
00000
,
00000
00000
00000
00000
,
00000
00000
00000
00000
,
00000
00000
00000
00000
,
00000
00000
00000
00000
,
00000
00000
00000
00000
,
00000
00000
00000
00000
,
00000
00000
00000
00000
,
00000
00000
00000
00000
,
00000
00000
00000
00000
,
00000
00000
00000
00000
,
00000
00000
00000
00000
,
00000
00000
00000
00000
,
23000
00000
00000
00000
,
00000
00000
00000
00000
,
00000
00000
00000
00000
,
00000
00000
00000
00000
,
00000
00000
00000
00000
,
00000
00000
00000
00000
,
00000
00000
00000
00000
,
00000
00000
00000
00000
,
00000
00000
00000
00000
,
00000
00000
00000
00000
,
00000
00000
00000
00000
,
00000
00000
00000
00000
,
00000
00000
00000
00000
,
00000
00000
00000
00000
,
00000
00000
00000
00000
,
00000
00000
00000
00000
,
00000
00000
00000
00000
,
00000
00000
00000
00000
,
00000
00000
00000
00000
,
00000
00000
00000
00000
,
00000
00000
00000
30330
,
00000
00000
00000
00000
,
12000
03000
01000
00010
,
00100
10000
00110
01100
,
01000
00010
00100
01000
,
00100
01000
00100
00000
,
00200
00300
02000
03000
,
02100
03000
01000
00100
,
01000
01000
00100
00100
,
01000
11200
00300
01000
,
00100
01100
00010
01100
,
01000
00010
00000
02000
,
03000
01100
01000
00100
,
00000
02200
00000
00000
,
00000
00000
00000
00000
,
00000
00000
00000
00000
,
00000
00000
00000
00000
,
00000
00000
00000
00000
,
00000
00300
00200
00000
,
00000
00000
00000
00000
,
00000
00000
00000
00000
,
00000
00000
00000
00000
,
00000
00000
00000
00000
,
03300
00010
02220
00000
00000
00000
00000
00000
,
00000
00000
00000
00000
,
00000
00030
00000
00000
00000
00000
00000
00020
,
00000
00000
00000
00000
,
00000
03000
00000
00000
00000
00000
02000
00030
,
00000
00020
00000
00000
00000
00000
00000
00000
,
00000
00000
00000
00300
20000
30000
00000
00000
,
00000
00000
00200
00000
00030
00020
00000
00000
,
00000
20330
00020
33030
00000
22000
00000
00000
,
00000
00000
00000
00000
,
00000
00000
00000
00000
00000
00000
00000
03000
,
00000
00000
00000
00000
,
00000
00000
00000
00000
,
00000
00000
00000
00000
,
00000
00000
00000
00000
00000
00000
00000
30000
,
10000
11000
00200
00300
00000
00010
00000
20102
,
00003
00000
00000
30000
00022
00033
00002
00000
,
00000
00000
00000
00000
,
00000
00000
00000
00000
,
00000
00000
00000
00000
,
00000
00000
00000
00000
,
00000
00000
00000
00000
,
00000
00020
00000
00000
00000
00000
00000
00000
,
00000
00000
00000
22033
,
00000
03002
00000
00000
00000
00000
00000
00000
,
00000
00000
00000
00000
,
00000
00000
00000
00000
,
00000
00000
00000
00000
,
00000
00000
00000
30000
00000
00000
00020
00000
,
00000
00000
00000
00000
,
00000
00000
00000
00000
00000
20030
00000
00000
,
00000
00000
00000
00000
,
00000
00000
00000
00000
00000
00000
00000
30020
,
00000
00030
00000
00000
00000
00000
00000
00020
,
00000
00000
00000
00000
,
00000
00000
00000
00000
,
00000
00000
00000
00000
00000
00000
00000
02203
,
00000
00030
00000
00300
00000
00000
00000
00000
,
00000
00000
00000
00000
,
00100
00000
00000
00000
,
03002
02000
00003
00000
00002
00000
03003
00012
,
00003
00022
00033
00000
00000
00000
00000
00010
,
00011
00011
00000
00011
00010
11000
00110
11000
,
00010
00000
00000
00000
00000
00000
00100
00000
00000
00100
00000
00000
02000
00000
03110
00000
00100
00000
01000
00000
00010
00000
01000
00000
,
00010
01110
01000
00010
00200
02300
03000
00100
00220
00330
00000
01000
,
01000
01000
01000
01000
01000
01000
00000
00000
00000
00000
00000
00000
,
00000
00000
00002
00003
00020
00030
00010
00010
00010
00020
00030
01000
,
01000
01000
01000
01000
02000
03000
00200
00300
00110
00110
00010
00000
,
00000
00000
00220
00330
02000
03000
02000
03000
01110
01110
00110
00000
,
11010
00000
00000
00000
00000
00000
00000
00000
00000
00000
00000
00000
00000
00000
00000
00000
11000
00000
00000
00000
00000
00000
00000
00000
00000
00000
00000
00000
00000
00000
00000
00000
00000
00000
00000
00000
00000
00000
00000
00000
00000
00000
00000
00000
00000
00000
00000
00000
11110
00000
00000
00000
00000
00000
00000
00000
00000
00000
00000
00000
00000
00000
00000
00000
11110
00000
00000
00000
00000
00000
00000
00000
00000
00000
00000
00000
00000
00000
00000
00000
11010
00000
00000
00000
00000
00000
00000
00000
00000
00000
00000
00000
00000
00000
00000
00000
00110
00000
00000
00000
00000
00000
00000
00000
00000
00000
00000
00000
00000
00000
00000
00000
01000
00000
00000
00000
00000
00000
00000
00000
00000
00000
00000
00000
00000
00000
00000
00000
01110
00000
00000
00000
00000
00000
00000
00000
00000
00000
00000
00000
00000
00000
00000
00000
01010
00000
00000
10000
00000
00000
22000
00000
00000
33000
00000
00000
22200
00000
00000
33300
00000
00000
11100
00000
00000
10100
00000
00000
11210
00000
00000
00300
00000
00000
01100
00000
00000
10010
00000
00000
10000
00000
00000
11000
00000
00000
00110
00000
00000
00000
00000
00000
,
01110
01100
02200
03000
00000
00300
00000
00000
00000
00000
00000
00000
00000
00000
00000
00000
02200
20000
03320
30000
00130
00220
20330
31110
22220
33330
01110
02220
03330
22000
03220
31300
00000
00000
00000
00000
22030
00000
33020
00030
02210
03320
11030
00000
22220
00330
33100
00220
00330
22200
33300
11220
00330
21220
30000
00000
00000
00000
00000
00000
00000
00000
00000
00000
,
20300
02030
33220
20300
02230
33020
20330
00020
00000
00000
00000
00000
00000
00000
00000
00000
00000
00000
00000
00000
00000
00000
00200
00000
00000
00300
00200
00000
00300
00200
01300
00000
02200
33330
00120
20230
02300
33120
20030
02200
33320
00030
11120
00000
22130
33220
00330
10010
02220
03330
10210
00300
10110
20220
30330
20220
00330
02200
33320
20030
02220
33300
22230
33320
,
22030
30220
03300
22230
00020
00000
00000
03030
00020
30300
00000
02000
00200
00000
03000
22000
00000
00000
00000
03330
00000
02200
30000
03020
22330
33110
00020
10130
00210
01300
00100
00100
10000
10110
20020
30230
00300
02220
23330
30010
00220
00330
20200
00300
30020
00030
00000
00000
00000
00000
00000
00000
00000
00000
00000
00000
00000
00000
00000
00000
00000
00000
00000
00000
;

//---------------dance-double - Copied from A very h----------------
#NOTES:
     dance-double:
     Copied from A very h:
     Challenge:
     8:
     0.981,1.000,1.000,1.000,0.326,489.000,329.000,527.000,0.000,159.000:
01100000
00110000
00000000
00000000
00000000
00000000
11000000
00000000
00000000
00000000
00000000
00000000
,
00000000
00000000
00000000
00000000
00000000
00000000
00000000
00000000
00000000
00000000
00000000
00000000
00000000
00000000
00000000
00000000
01100000
00000000
00000000
00000000
00000000
00000000
00000000
00000000
00000000
00000000
00000000
00000000
00000000
00000000
00000000
00000000
00000000
00000000
00000000
00000000
00000000
00000000
00000000
00000000
00000000
00000000
00000000
00000000
00000000
00000000
00000000
00000000
00000000
00000000
00000000
00000000
00000000
00000000
00000000
00000000
00000000
00000000
00000000
00000000
00000000
00000000
00000000
00000000
00000000
00000000
01100000
00000000
00000000
00000000
00000000
00000000
00110000
00000000
00000000
00000000
00000000
00000000
00000000
00000000
00000000
00000000
00000000
00000000
00000000
00000000
00000000
00000000
00000000
00000000
00000000
00000000
00000000
00000000
00000000
00000000
00000000
00000000
00000000
00000000
00000000
00000000
00000000
00000000
00000000
00000000
00000000
00000000
00000000
00000000
00000000
00000000
00000000
00000000
00000000
00000000
00000000
00000000
00000000
00000000
00000000
00000000
00000000
00000000
00000000
00000000
00000000
00000000
00000000
00000000
00000000
00000000
00000000
00000000
00000000
00000000
00000000
00000000
00000000
00000000
00000000
00000000
00000000
00000000
00000000
00000000
00000000
00000000
00000000
00000000
00000000
00000000
00000000
00000000
00000000
00000000
00000000
00000000
00000000
00000000
00000000
00000000
01100000
00000000
00000000
00000000
00000000
00000000
00000000
00000000
00000000
00000000
00000000
00000000
00000000
00000000
00000000
00000000
00000000
00000000
00000000
00000000
00000000
00000000
00000000
00000000
01100000
00000000
00000000
00000000
00000000
00000000
,
01100000
00000000
00000000
00000000
00000000
00000000
01100000
00000000
00000000
00000000
00000000
00000000
00000000
00000000
00000000
00000000
00000000
00000000
00000000
00000000
00000000
00000000
00000000
00000000
00000000
00000000
00000000
00000000
00000000
00000000
00000000
00000000
00000000
00000000
00000000
00000000
00000000
00000000
00000000
00000000
00000000
00000000
00000000
00000000
00000000
00000000
00000000
00000000
00000000
00000000
00000000
00000000
00000000
00000000
00000000
00000000
00000000
00000000
00000000
00000000
00000000
00000000
00000000
00000000
01100000
00000000
00000000
00000000
00000000
00000000
00000000
00000000
00000000
00000000
00000000
00000000
00000000
00000000
00000000
00000000
00000000
00000000
00000000
00000000
00000000
00000000
00000000
00000000
00000000
00000000
00000000
00000000
00000000
00000000
00000000
00000000
01100000
00000000
00000000
00000000
00000000
00000000
00000000
00000000
00000000
00000000
00000000
00000000
00000000
00000000
00000000
00000000
00000000
00000000
00000000
00000000
00000000
00000000
00000000
00000000
00000000
00000000
00000000
00000000
00000000
00000000
00000000
00000000
00110000
00000000
00000000
00000000
00000000
00000000
00000000
00000000
00000000
00000000
00000000
00000000
00000000
00000000
00000000
00000000
00000000
00000000
00000000
00000000
00000000
00000000
00000000
00000000
00000000
00000000
00000000
00000000
00000000
00000000
00000000
00000000
00000000
00000000
00000000
00000000
00000000
00000000
00000000
00000000
00000000
00000000
00000000
00000000
00000000
00000000
00000000
00000000
00000000
00000000
00000000
00000000
00000000
00000000
00000000
00000000
00000000
00000000
00000000
00000000
00000000
00000000
00000000
00000000
,
00110000
00000000
00110000
00000000
,
00000000
00000000
20000000
00000000
,
00000000
00000000
00000000
00000000
,
00000000
00000000
30000000
00000000
,
10010000
00000000
20010000
00000000
,
00010000
00000000
00010000
00000000
,
00010000
00000000
00010000
00000000
,
00010000
00000000
00010000
00000000
,
30010000
00000000
00000000
00000000
10000000
00000000
00000000
00000000
00000000
00000000
00000000
00000000
10010000
11110000
00000000
00000000
00000000
00000000
00000000
11110000
00000000
00000000
00000000
00000000
,
11000000
00000000
00110000
11000000
,
00110000
00000000
00000000
00000000
01100000
00000000
01100000
00000000
00100000
00100000
00000000
00000000
,
00100000
00000000
00000000
00000000
00000000
00000000
00000000
00000000
00100000
00000000
00100000
00000000
00100000
00100000
00000000
00000000
00000000
00000000
00000000
00000000
00000000
00000000
00000000
00000000
00000000
00000000
00000000
00000000
00000000
00000000
00000000
00000000
,
01100000
00000000
11000000
00000000
,
01110000
00000000
00000000
11000000
00000000
00000000
01100000
00000000
01100000
00000000
11000000
00000000
,
11000000
00000000
00000000
00000000
11000000
00000000
00000000
00000000
11000000
00000000
00000000
00000000
00110000
00000000
00000000
01100000
00000000
00000000
01100000
00000000
00000000
00000000
00000000
00000000
00010000
00000000
00000000
00000000
00000000
00000000
00000000
00000000
00000000
00000000
00000000
00000000
00000000
00000000
00000000
00000000
00000000
00000000
00000000
00000000
00000000
00000000
00000000
00000000
,
00010000
00000000
00000000
00010000
00010000
00000000
00000000
00000000
00000000
00110000
00000000
00000000
,
00110000
00000000
00110000
00000000
,
00110000
00000000
00110000
00000000
,
00110000
00000000
11000000
01100000
,
00110000
00000000
01100000
00000000
01100000
00000000
01100000
00000000
01100000
00000000
11110000
00000000
,
11110000
00000000
00000000
00000000
11110000
00000000
00000000
00000000
01110000
00000000
00000000
00000000
01000000
00000000
01000000
01100000
01000000
00000000
01000000
00000000
00000000
00100000
00000000
00000000
,
00100000
00000000
00000000
00000000
,
00000000
00000000
00000000
00000000
,
00000000
00000000
00000000
00000000
02000000
03000000
00000000
00000000
,
00000000
00000000
00000000
00000000
,
00000000
00000000
00000000
00000000
,
02000000
00000000
20220000
00000000
,
00000000
00000000
00000000
00000000
33330000
00000000
00110000
00100000
,
00110000
00000000
00000000
00000000
00000000
00000000
01000000
00000000
00000000
00200000
00000000
00000000
01300000
00000000
00000000
00000000
00100000
00000000
00200000
00000000
00000000
00000000
02000000
00000000
,
00300000
03000000
02000000
00000000
00000000
00200000
00300000
00000000
00000000
00000000
00200000
03000000
,
02300000
00000000
03200000
00300000
02000000
00000000
03200000
00300000
02000000
03000000
00200000
00300000
,
00100000
02000000
00200000
03300000
01100000
02200000
03300000
02000000
00000000
00200000
03300000
00200000
,
00300000
02100000
00200000
03300000
02000000
03000000
02200000
03000000
00000000
00300000
02100000
03000000
,
02200000
03300000
01100000
02200000
03300000
01100000
02200000
03300000
01100000
02200000
03300000
01100000
,
02200000
03300000
01100000
02200000
03300000
01200000
00300000
01100000
00200000
00300000
00100000
00220000
,
00330000
00110000
00220000
00330000
00220000
00330000
00110000
00220000
00330000
00110000
00220000
00330000
,
00220000
00330000
00220000
00330000
01110000
00200000
01300000
00000000
00000000
00000000
02200000
03300000
,
02200000
03300000
01100000
02200000
03300000
02200000
00000000
03300000
02200000
03300000
00000000
00000000
,
02200000
03300000
22000000
33000000
11000000
22000000
33000000
22000000
33000000
12000000
03000000
11000000
,
22000000
33000000
01000000
02220000
03330000
00220000
00330000
00020000
00030000
00000000
21100000
02200000
,
33300000
20200000
30320000
00030000
20020000
30030000
20000000
30220000
00330000
00220000
00330000
20220000
,
30330000
20200000
00000000
00000000
30320000
00100000
22030000
33000000
00020000
00030000
00020000
00030000
,
00010000
02220000
03330000
10220000
22000000
00000000
00000000
00000000
00000000
00000000
00000000
00000000
,
00000000
00000000
00000000
00000000
00000000
00000000
00000000
00000000
00000000
00000000
00000000
33330000
,
00000000
00000000
00000000
11100000
,
00100000
00000000
00200000
22000000
00300000
00000000
33000000
00000000
02200000
00000000
03300000
00000000
,
02200000
00000000
03300000
00000000
20000000
00000000
30100000
00000000
00000000
00100000
00000000
00000000
,
02200000
03300000
02200000
03300000
,
22000000
03000000
30000000
01000000
,
02200000
03300000
00000000
00000000
,
00000000
00000000
00000000
00000000
,
00000000
00000000
00000000
00000000
,
00000000
00000000
00000000
00000000
,
00000000
00000000
02000000
03000000
,
00000000
00200000
20300000
02000000
,
33000000
00200000
11300000
02100000
,
03000000
00000000
00110000
00010000
00000000
00000000
22210000
00000000
00000000
03300000
00000000
00000000
,
31200000
20300000
00020000
31000000
,
02200000
03300000
02200000
20300000
,
33230000
00300000
02200000
03300000
,
20000000
30200000
00320000
02000000
,
03230000
11300000
22210000
33300000
,
10020000
02200000
13300000
00200000
,
00330000
02000000
23200000
30300000
,
02200000
00000000
03300000
00000000
00100000
00000000
11000000
11000000
,
00220000
00000000
00000000
20000000
30000000
12000000
13000000
11000000
11330000
00000000
00000000
20000000
30000000
00000000
00000000
00000000
,
00110000
00000000
00000000
22000000
00000000
00000000
33000000
00000000
00000000
00000000
00000000
00000000
22000000
00000000
33000000
00000000
00000000
00000000
00000000
00000000
00000000
00000000
00000000
00000000
01000000
00000000
00000000
00000000
00000000
00000000
00000000
00000000
00000000
00000000
00000000
00000000
00000000
00000000
00000000
22000000
00000000
00000000
33000000
00000000
00000000
00000000
00000000
00000000
,
00000000
00000000
22000000
00000000
33000000
00000000
11000000
00000000
10000000
00000000
12000000
00000000
13000000
00000000
00000000
00000000
22020000
00030000
00000000
00000000
00000000
00000000
00110000
00000000
00000000
00000000
00110000
00110000
00110000
00110000
00110000
00110000
,
33100000
00110000
00110000
00220000
00330000
00110000
00110000
00110000
00110000
00110000
00110000
00010000
00110000
00110000
00110000
00110000
00110000
00110000
00110000
00110000
00100000
00000000
00000000
00220000
00330000
00110000
00110000
00110000
00110000
00110000
00110000
00020000
,
00130000
00000000
00000000
00000000
00000000
00000000
00120000
00000000
00000000
00000000
00000000
00000000
00130000
00000000
00000000
00000000
00000000
00000000
00110000
00000000
00000000
00000000
00000000
00000000
02220000
00000000
00000000
00000000
00000000
00000000
00000000
00000000
00030000
00000000
00000000
00000000
23320000
00000000
00000000
00000000
00000000
00000000
00000000
00000000
00000000
00000000
00000000
00000000
30030000
00000000
00000000
00000000
00000000
00000000
00000000
00000000
00000000
00000000
00000000
00000000
20210000
00000000
00000000
00000000
00000000
00000000
00000000
00000000
00000000
00000000
00000000
00000000
30300000
00000000
00000000
00000000
00000000
00000000
00000000
00000000
00000000
00000000
00000000
00000000
00000000
00000000
00000000
00000000
00000000
00000000
00000000
00000000
00000000
00000000
00000000
00000000
02220000
00000000
00000000
00000000
00000000
00000000
00000000
00000000
00000000
00000000
00000000
00000000
00000000
00000000
00000000
00000000
00000000
00000000
00000000
00000000
00000000
00000000
00000000
00000000
00000000
00000000
00000000
00000000
00000000
00000000
00000000
00000000
00000000
00000000
00000000
00000000
00000000
00000000
00000000
00000000
00000000
00000000
00000000
00000000
00000000
00000000
00000000
00000000
00000000
00000000
00000000
00000000
00000000
00000000
00000000
00000000
00000000
00000000
00000000
00000000
00000000
00000000
00000000
00000000
00000000
00000000
00000000
00000000
00000000
00000000
00000000
00000000
00000000
00000000
00000000
00000000
00000000
00000000
00000000
00000000
00000000
00000000
00000000
00000000
00000000
00000000
00000000
00000000
00000000
00000000
00000000
00000000
00000000
00000000
00000000
00000000
,
03330000
00000000
22020000
00000000
,
33030000
00000000
01000000
00000000
,
22220000
00000000
33330000
00000000
,
02220000
00000000
23330000
00000000
,
00000000
00000000
32200000
00000000
,
00300000
00000000
03220000
00000000
,
20330000
00000000
02210000
00000000
,
33300000
00000000
02020000
00000000
,
00030000
00000000
03000000
00000000
,
00000000
00000000
22000000
00000000
,
33000000
00000000
00000000
00000000
,
02220000
00000000
03330000
00000000
,
02100000
00000000
03100000
00000000
,
00220000
00000000
00330000
00000000
,
00000000
00000000
00000000
00000000
,
01010000
00000000
00220000
00000000
,
01330000
00000000
00200000
00000000
,
20300000
00000000
02220000
00000000
,
33330000
00000000
01220000
00000000
,
00330000
00000000
01110000
00000000
,
02220000
00000000
03330000
00000000
,
01220000
00000000
00330000
00000000
,
01110000
00000000
00220000
00000000
,
00330000
00000000
00220000
00000000
,
00330000
00000000
00220000
00000000
,
00330000
00010000
02200000
00010000
,
03300000
02220000
03330000
02220000
,
03330000
02200000
03300000
00220000
,
00330000
02210000
03300000
01220000
,
00330000
00110000
00020000
00130000
,
00220000
00330000
02220000
03330000
,
00220000
00330000
00110000
00220000
,
00330000
00220000
02000000
03330000
,
02220000
03330000
02220000
03330000
,
02220000
03330000
00220000
00330000
,
02220000
03330000
02220000
03330000
,
02220000
03330000
02220000
03330000
,
02220000
03330000
02220000
03330000
,
00220000
00330000
00220000
00330000
,
02200000
00300000
03000000
02000000
,
20000000
00000000
03000000
00000000
,
00100000
02000000
00100000
03020000
,
30030000
22010000
00200000
33000000
,
22000000
00020000
03330000
00020000
,
30030000
20020000
00030000
00200000
,
02300000
00000000
33120000
20030000
,
02220000
33330000
22200000
03300000
,
30220000
00330000
02210000
03300000
,
10000000
00220000
10030000
22000000
,
03300000
00220000
30330000
00020000
,
00230000
01310000
20020000
30130000
,
20020000
00030000
00020000
30030000
,
20220000
30330000
00220000
00330000
,
02220000
03330000
22220000
33330000
,
00020000
00030000
02220000
03330000
,
01110000
00020000
00130000
00220000
,
00330000
00220000
00330000
00220000
,
00330000
00000000
22220000
33330000
,
22220000
00000000
00000000
00000000
,
00000000
00000000
00000000
00000000
,
00000000
00000000
03030000
30320000
,
00000000
00030000
22200000
30000000
,
03300000
01220000
00330000
20000000
,
30000000
00020000
22030000
33200000
,
00300000
02220000
00330000
00200000
,
03300000
00020000
02230000
03000000
,
00020000
00330000
02200000
03300000
,
00020000
00030000
00000000
22000000
,
03100000
30120000
00030000
22220000
,
03330000
02220000
03330000
31200000
,
00320000
01130000
02220000
03330000
,
01220000
00330000
00210000
20300000
,
00000000
00020000
30030000
00220000
,
00330000
20220000
30330000
00220000
,
00330000
20210000
00300000
30110000
,
00020000
00130000
20220000
30330000
,
10110000
00000000
00110000
00220000
,
00330000
00000000
01110000
00000000
,
00000000
00000000
22220000
00000000
,
00000000
00000000
33330000
00000000
,
00000000
00000000
00000000
22220000
,
33300000
00030000
00000000
00000000
,
02220000
03330000
00000000
00020000
,
00030000
00000000
00110000
00000000
,
00220000
00330000
00000000
01220000
,
00330000
00000000
01110000
00000000
,
02220000
03330000
00000000
00120000
,
00030000
00000000
01110000
00000000
,
00220000
00330000
00000000
22220000
,
33330000
20020000
30030000
00000000
,
22220000
33330000
00020000
11130000
,
00000000
02220000
03330000
00000000
,
00220000
00330000
00000000
01110000
,
00220000
22000000
00000000
00000000
,
00000000
00000000
00000000
00000000
,
00000000
00000000
00000000
00000000
,
00000000
00000000
00000000
00000000
,
00000000
03000000
00000000
00000000
,
00000000
00000000
00000000
00000000
,
00000000
00000000
00000000
02000000
,
00000000
00000000
00000000
00000000
,
00000000
00000000
00000000
00000000
,
00000000
30000000
00000000
00000000
,
00000000
00000000
00000000
00000000
,
20000000
00000000
00000000
00000000
,
00000000
00000000
00030000
00000000
,
00000000
00000000
00000000
00000000
,
00020000
00000000
00000000
00000000
,
00000000
00000000
00000000
00000000
,
00000000
00000000
00030000
00300000
,
00000000
00000000
00000000
00000000
,
00000000
00200000
00000000
00000000
,
00000000
00000000
00000000
00000000
,
00000000
00000000
00000000
03320000
,
30030000
00220000
00330000
00220000
,
00330000
01110000
22220000
33330000
,
11120000
00030000
01110000
00000000
,
01110000
00000000
01110000
00000000
,
01220000
00330000
02220000
03330000
,
00220000
00330000
02200000
03300000
,
00000000
00220000
00330000
00220000
,
00330000
10200000
00320000
00130000
,
00220000
00330000
02220000
03330000
,
00020000
00030000
00110000
00220000
,
00330000
22220000
33330000
00000000
;

//---------------dance-double - ----------------
#NOTES:
     dance-double:
     :
     Hard:
     1:
     0.000,0.000,0.000,0.000,0.000,0.000,0.000,0.000,0.000,0.000:
00000000
00000000
00000000
00000000
;

//---------------dance-single - TRY IT OUT!!!!!!!!!!----------------
#NOTES:
     dance-single:
     TRY IT OUT!!!!!!!!!!:
     Challenge:
     10:
     0.649,1.000,0.817,0.316,0.805,710.000,173.000,67.000,3.000,19.000:
1000
0100
0000
0000
0000
0000
0010
0000
,
0000
0000
0001
0000
0000
0000
0000
0000
0000
1000
0100
0000
1000
0000
0000
0000
,
0001
0000
0000
0000
0000
0000
0100
0001
0000
0100
0000
0000
0001
0000
0000
0000
,
0000
1000
0000
0000
0100
0000
0000
1000
,
0000
0000
0000
0000
0000
0010
0000
0000
0000
0000
0000
0000
0100
0001
1000
0000
,
0000
0100
0000
0000
0010
0000
0000
0001
,
0100
0000
0001
0000
0000
0000
0000
0000
0000
0000
1000
0000
0100
1000
0010
0000
,
0100
0001
0000
0000
0000
0000
0100
0000
0010
1000
0000
0100
0000
0000
0200
0000
,
0000
0300
0000
0001
1000
0000
0001
0200
0000
0000
0302
0200
0000
0000
0303
0001
,
0000
1000
0000
0010
0100
0001
0000
0200
0000
0000
0001
0300
0100
0000
0010
1000
,
0000
0100
0010
0000
0002
0000
0000
0200
0003
0310
0000
1000
0100
0000
0010
0000
,
0000
0001
0000
0000
2000
0000
0000
0000
0000
3000
0000
0000
0000
0100
0000
0000
,
0010
0001
1010
0100
1001
0100
0010
0001
0000
0000
0000
0000
0000
1000
0100
0000
,
1000
0000
0100
1000
0000
0100
0000
1000
0100
1000
0100
0000
1000
0100
1000
0100
,
1000
0100
1000
0100
1000
1100
0100
1000
1100
0100
1000
1100
1000
0100
1000
0100
,
0000
0000
0000
0001
0100
0001
0100
0001
0100
0001
0100
0101
0001
0100
0000
0001
,
1000
0001
0100
0101
0101
0000
0101
0000
0000
0000
0000
0001
0100
0101
0001
0100
,
0101
0001
0101
0000
0100
0000
0000
0000
0001
0010
0001
0010
0001
0011
0010
0001
,
0010
0001
0000
0000
0000
1000
1100
0100
1000
1100
0000
1100
0000
1000
0100
0000
,
0000
0000
0100
0000
0000
0010
0001
0000
1000
0000
0000
0000
0100
0020
0000
0002
,
0000
0000
0133
0000
1000
0020
0000
0000
0230
0000
0000
0301
0000
0010
0100
0000
,
1000
0000
0001
0000
0000
0100
0010
0000
1000
0100
0000
0010
0101
0010
0101
0010
,
0000
0111
0000
0000
0010
0101
0000
0111
0000
0111
0000
0111
0000
0111
0000
0111
,
0000
0111
0000
0111
0111
0000
0000
0010
1000
0000
0000
1100
1100
1100
0000
1100
,
1100
0000
1100
0000
1100
0000
0000
1100
0000
0001
0001
0000
0001
0001
0000
0000
,
0001
0000
0000
0000
0000
0000
1000
0100
0000
0010
0001
0000
1000
0000
0010
0100
,
0000
0001
1000
0000
0100
0010
0000
0001
1000
0000
0010
0100
0000
0001
2000
0000
,
0200
0000
0300
3010
0000
0100
0001
0000
1000
0010
0000
0200
0010
0000
0010
0010
,
0000
0010
0010
0000
0010
0000
0010
0000
0010
0020
0000
0000
0000
0001
0030
0000
,
0002
0000
0000
0000
0003
0000
0002
0000
0000
0000
0000
0003
0000
0002
0000
0000
,
0003
0300
0000
0010
1000
0000
0100
0010
0000
0001
1000
0000
0001
1001
0000
0001
,
1000
0000
1001
0000
2002
0000
0000
0000
0000
0003
0000
3000
0200
0000
0000
0000
,
0000
0000
0000
0000
0000
0000
2300
0000
0000
3001
1000
0000
0001
0000
0001
1000
,
0000
0000
1001
0000
0000
2102
0000
0000
0000
0000
0000
0200
0000
0000
0000
0000
,
0000
0000
0000
0000
0300
0000
0000
0000
0000
0000
0000
0000
0100
0000
0000
0100
,
0003
3000
0000
0000
0000
2200
0000
0000
0000
3300
0000
1010
0010
1000
1000
0010
,
0000
1010
0000
0000
1010
0000
0000
0000
2020
0000
0000
0000
3030
0000
0022
0000
,
0000
0000
0003
0000
0100
0000
0000
0100
0000
0000
0000
0100
0100
0000
0100
0000
,
1030
0000
0000
0000
1100
0001
0000
0000
1100
0000
0000
0100
1000
0000
0000
0000
,
0000
0010
0000
0000
0000
0000
0000
0000
0001
0000
0001
0100
0000
0100
0001
0000
,
0000
0011
0000
0000
0100
0000
0000
1000
0100
0000
0010
0000
0000
0100
0001
0000
,
0000
0011
0000
0000
0110
0000
0000
0001
0000
0000
1100
0000
0000
0000
0000
0000
,
0000
1000
0000
0000
0000
1000
0000
0000
1000
0000
0000
1000
0000
1000
0000
0000
,
1000
0000
0000
1000
0000
0000
0000
0000
0000
0000
0100
0000
0000
0000
0011
0000
,
0001
0000
0000
0010
0000
0000
0010
0100
0000
0000
0000
0000
0001
0100
0000
0000
,
0000
0000
0000
1100
0000
0000
0000
0000
0000
0000
0001
0100
0001
0010
0000
0001
,
0000
0010
0001
0010
0000
0001
0010
0000
0001
0010
0001
0010
0011
0001
0010
0001
,
0010
0011
0000
0000
0000
0000
0000
0000
0000
1000
0100
1000
0000
0100
0000
1000
,
0000
0100
1000
0000
0100
1000
0000
0100
1000
0100
1000
1100
0000
1100
0100
1000
,
0100
1000
1100
0000
0000
0000
0000
0000
1000
0100
0000
0011
0000
0010
0100
0000
,
1000
0010
0000
0100
0001
0000
0010
0100
0000
1000
0010
0000
0000
0001
0000
0010
,
0100
0000
1000
0010
0000
0100
0001
0000
0110
0000
0000
1010
0000
0000
0101
0000
,
0000
0110
0000
0000
1010
0000
0000
0100
0000
0000
0011
0000
0000
0101
0000
0000
,
0100
0001
0000
0100
0001
0000
0100
0001
0000
0000
0000
0000
0000
0000
0101
0000
,
0000
1010
0000
0000
0101
0000
0000
1000
0010
0000
0100
0001
1000
0010
0000
0100
,
0001
0000
1000
0010
0000
0100
0000
0101
0000
0000
1010
0000
0000
0101
0000
1000
,
0000
0010
0000
0100
0001
1000
0000
0010
0200
0000
0002
0000
0000
0300
0003
0000
,
1100
1000
0100
0000
0000
1010
1000
0010
0000
0000
0101
0000
0101
0000
0000
0011
,
0011
0000
0000
0022
0000
0000
0000
0000
0033
0000
1100
0000
1000
0100
1100
0000
,
2020
0000
3030
1010
1010
0000
1010
0000
0000
1010
1010
0000
1010
0000
1010
0000
,
2020
0000
3030
0000
0000
0000
0000
0000
0000
0000
0000
0000
0000
0000
0000
0000
0000
0000
0000
0000
0000
0000
0000
0000
0000
0000
0000
0000
0000
0000
0000
0000
0000
0000
0000
0000
1100
0000
0000
0000
0000
0000
0000
0000
0000
0000
0000
0000
0000
0000
0000
0000
0000
0000
0000
0000
0000
0000
0000
0000
0000
0000
0000
0000
0000
0000
0000
0000
0000
0000
0000
0000
2200
0000
0000
0000
0000
0000
0000
0000
0000
0000
0000
0000
0000
0000
0000
0000
0000
0000
0000
0000
0000
0000
0000
0000
0000
0000
0000
0000
0000
0000
0000
0000
0000
0000
0000
0000
0000
0000
0000
0000
0000
0000
0000
0000
0000
0000
0000
0000
0000
0000
0000
0000
0000
0000
0000
0000
0000
0000
0000
0000
0000
0000
0000
0000
0000
0000
0000
0000
0000
0000
0000
0000
0000
0000
0000
0000
0000
0000
0000
0000
0000
0000
0000
0000
0000
0000
0000
0000
0000
0000
0000
0000
0000
0000
0000
0000
0000
0000
0000
0000
0000
0000
0000
0000
0000
0000
0000
0000
0000
0000
0000
0000
0000
0000
0000
0000
0000
0000
0000
0000
,
0001
0000
0001
0000
0300
3000
2200
0000
0000
3000
0000
0300
0000
0000
1000
0000
,
0100
1000
0000
0010
0100
0000
0001
0100
0101
0001
0010
0000
0000
0000
0000
0100
,
0001
0100
0001
0000
0000
0001
0000
0000
0101
0000
0100
0010
0000
1000
0100
0000
,
0000
0010
0001
0000
1000
0100
0000
0010
0000
0100
0001
0000
0000
0010
0001
0000
,
1010
0000
0000
1000
0100
0000
0000
0101
0000
0000
0011
0000
0000
1100
0000
0000
,
1000
0010
0000
0000
0101
0000
0000
0010
0001
0000
0100
1000
0000
0010
0100
0000
,
0001
0000
0100
0000
0101
0000
0000
0110
0000
0000
0001
1000
0000
0010
0100
0000
,
0001
0100
0000
0010
0100
0000
0000
1001
0000
0000
0110
0000
0000
0001
0100
0000
,
0110
0000
0000
1000
0001
0000
0010
0100
0000
0000
0101
0000
0000
0100
0000
0000
,
0010
0100
0000
0100
1000
0000
0000
1100
0000
0000
0100
0000
0001
0100
0000
0000
,
0110
0000
0000
1100
0000
0000
0010
0001
0000
0100
0010
0000
0000
1100
0000
0000
,
0110
0000
0000
0101
0000
0000
0011
0000
0000
0110
0000
0000
1100
0000
0000
0110
,
0000
0000
0101
0000
0000
0010
0100
0000
1000
0010
0000
0100
0001
0000
0010
0000
,
0100
1000
0001
0000
0100
0000
0010
0000
0000
0100
0001
0000
0100
0001
0000
0100
,
0000
0000
0000
0000
0000
0100
1000
0000
1000
0010
0000
0100
0001
0000
0000
0101
,
0000
0001
0000
MMM0
0000
0000
0000
0000
,
0000
0000
0000
0000
0000
0000
0000
0000
1010
0000
0000
1000
0010
1010
2020
0000
,
0000
0000
0000
0000
3030
0000
0000
0000
0000
0000
0000
0000
0001
0000
0100
0001
,
0000
0001
0100
0000
0010
0000
0000
0000
2102
0000
0000
0000
3003
0000
1100
0000
,
0000
0000
1101
1100
1100
0000
0000
1100
0000
1100
1100
0000
1100
0001
0100
0101
,
0101
0000
0000
0000
0011
0000
0011
0011
0000
0011
0011
0000
0011
0011
0000
0011
,
0001
0000
0000
0000
0100
0001
0000
0110
0000
1000
0100
0000
0000
0011
0000
0000
,
1000
0010
0000
0100
0100
0000
0000
0001
0100
0000
0001
0000
0000
0202
0000
0000
,
0000
0000
0000
0000
0303
0000
0000
0001
0020
0000
0002
0000
0000
0033
0000
0000
,
0100
1000
0000
0010
0000
0100
0000
0001
0200
0002
0000
0000
0000
0003
0000
0000
,
0001
0001
0000
0002
0000
0000
0300
0003
0000
0100
0000
1000
0000
0010
0100
0000
,
0001
0200
0000
0001
0000
0002
0000
0000
0003
0001
0000
0001
0002
0000
0000
0000
,
0003
0001
0001
0002
0000
0000
0000
0303
0000
1000
0100
0000
0010
0001
0000
1000
,
0000
0000
0000
0000
,
0000
2002
0000
0000
,
0000
0000
0000
0000
,
0000
0000
0000
0000
3003
0000
0000
1100
,
0000
1000
0010
0000
0000
2020
0000
0000
0000
0000
0000
3000
0030
0000
0000
0001
,
0100
0000
0001
0000
0100
0001
0000
0100
0010
0000
0000
1100
0000
0000
0010
0001
,
0000
0100
0010
0000
0000
1100
0000
0000
1010
0000
0000
0110
0000
0000
0101
0000
,
0000
0011
0000
0000
1100
0000
0000
1000
0010
0000
0100
0001
0000
0010
0001
0000
,
0100
0000
1000
0000
0110
0000
0001
0100
0000
0001
0100
0000
0000
0110
0000
0000
,
1100
1000
0100
1100
1000
1100
0100
1000
0000
1100
0000
1000
0100
0000
1000
0000
,
0100
0000
1000
0100
1000
0100
1000
0100
1000
1100
0100
1000
0100
1100
1000
1100
,
0100
0000
1000
1100
0200
2000
3000
0300
1100
1100
1100
0000
1100
0101
0001
0101
,
0011
0000
0000
0000
0000
0000
0000
0000
0000
0000
0000
0000
0022
0000
0000
0000
0000
0000
0000
0000
0000
0000
0000
0000
0000
0000
0000
0000
0000
0000
0000
0000
0000
0000
0000
0000
0000
0000
0000
0000
0000
0000
0000
0000
0000
0000
0000
0000
0000
0000
0000
0000
0000
0000
0000
0000
0000
0000
0000
0000
0000
0000
0000
0000
0000
0000
0000
0000
0000
0000
0000
0000
0000
0000
0000
0000
0000
0000
0000
0000
0000
0000
0000
0000
0000
0000
0000
0000
0000
0000
0000
0000
0000
0000
0000
0000
0000
0000
0000
0000
0000
0000
0000
0000
0000
0000
0000
0000
0000
0000
0000
0000
0000
0000
0000
0000
0000
0000
0000
0000
0000
0000
0000
0000
0000
0000
0000
0000
0000
0000
0000
0000
0000
0000
0000
0000
0000
0000
0000
0000
0000
0000
0000
0000
0000
0033
0000
0000
0000
0000
0000
0000
0000
0000
0000
0000
0000
0000
0000
0000
0000
0000
0000
0000
0000
0000
0000
0000
0000
0000
0000
0000
0000
0000
0000
0000
0000
0000
0000
0000
0000
0000
0000
0000
0000
0000
0000
0000
0000
0000
0000
0000
;

//---------------dance-single - ----------------
#NOTES:
     dance-single:
     :
     Medium:
     1:
     0.000,0.000,0.000,0.000,0.000,0.000,0.000,0.000,0.000,0.000:
0000
0000
0000
0000
;
